#TITLE:Dragon Blade;
#SUBTITLE:Dead Master;
#ARTIST:Kozo Nakamura;
#TITLETRANSLIT:;
#SUBTITLETRANSLIT:;
#ARTISTTRANSLIT:;
#CREDIT:;
#BANNER:bn.jpg;
#BACKGROUND:bg.jpg;
#LYRICSPATH:;
#CDTITLE:cdtitle.png;
#MUSIC:Dragon Blade.mp3;
#OFFSET:-0.130;
#SAMPLESTART:20.630;
#SAMPLELENGTH:19.250;
#SELECTABLE:YES;
#BPMS:0.000=240.000,20.000=240.022,21.000=240.000,42.000=240.022,43.000=240.000,57.000=120.016,57.333=480.000,58.000=240.022,59.000=240.000,70.000=120.016,70.333=480.000,71.000=120.016,71.333=480.000,72.000=240.022,73.000=240.000,74.000=120.016,74.333=480.000,75.000=120.016,75.333=480.000,76.000=240.022,77.000=120.016,77.333=480.000,78.000=120.016,78.333=480.000,79.000=120.016,79.333=480.000,80.000=240.022,81.000=120.016,81.333=480.000,82.000=240.022,83.000=240.000,96.000=120.000,96.333=480.000,97.000=120.000,97.333=480.000,98.000=240.000,99.000=240.022,100.000=240.000,106.000=239.978,106.500=120.000,106.833=480.392,107.000=479.869,107.500=120.000,107.833=480.392,108.000=479.869,108.500=240.022,109.000=240.000,120.000=240.022,121.000=240.000,128.000=120.000,128.333=480.000,129.000=120.000,129.333=480.000,130.000=240.000,131.000=240.022,132.000=240.000,133.000=239.978,133.500=120.000,133.833=480.392,134.000=479.869,134.500=240.022,135.000=240.000,146.000=240.022,147.000=240.000,154.000=120.011,154.500=480.044,155.500=120.011,156.000=480.044,157.000=240.000,158.000=240.022,159.000=240.000,162.000=120.000,162.333=480.000,163.000=240.000,164.000=240.022,165.000=240.000,166.000=120.000,166.333=480.000,167.000=240.000,168.000=240.022,169.000=240.000,170.000=120.000,170.333=480.000,171.000=240.000,172.000=240.022,173.000=240.000,174.000=120.000,174.333=480.000,175.000=240.000,176.000=240.022,177.000=240.000,180.000=120.011,180.250=480.044,180.750=120.011,181.000=480.044,181.500=120.000,181.833=480.392,182.000=479.869,182.500=240.022,183.000=240.000,194.000=120.000,194.333=480.000,195.000=240.000,196.000=120.000,196.333=480.000,197.000=240.000,198.000=120.000,198.333=480.000,199.000=240.000,200.000=120.000,200.333=480.000,201.000=240.000,202.000=240.022,202.500=120.000,202.833=480.392,203.000=479.869,203.500=240.022,204.000=120.000,204.333=480.000,205.000=240.022,205.500=120.000,205.833=480.392,206.000=479.869,206.500=240.022,207.000=120.000,207.333=480.000,208.000=240.000,210.000=240.022,210.500=120.000,210.833=480.392,211.000=479.869,211.500=240.022,212.000=120.000,212.333=480.000,213.000=240.022,213.500=120.000,214.000=480.044,215.000=240.000,217.000=240.022,218.000=239.978,218.500=120.000,218.833=480.392,219.000=479.869,219.500=240.022,220.000=240.000,223.000=120.000,223.333=480.000,224.000=240.022,224.500=120.000,225.000=480.044,226.000=240.000,228.000=240.022,229.000=240.000,230.000=120.000,230.333=480.000,231.000=120.000,231.333=480.000,232.000=240.000,234.000=240.022,234.500=120.000,235.000=480.044,236.000=240.022,236.500=120.000,237.000=480.044,238.000=240.022,238.500=120.000,239.000=480.044,240.000=240.022,240.500=120.000,241.000=480.044,242.000=240.000,244.000=240.022,245.000=240.000,266.000=240.022,267.000=240.000,288.000=240.022,289.000=240.000,310.000=240.022,311.000=240.000,314.000=120.000,314.333=480.000,315.000=120.000,315.333=480.000,316.000=240.022,316.500=120.000,317.000=480.044,318.000=240.000,319.000=120.000,319.333=480.000,320.000=240.022,320.500=120.000,321.000=480.044,322.000=120.000,322.500=480.044,323.500=120.000,324.000=480.044,325.000=120.000,325.667=480.131,326.000=479.956,327.000=240.000,329.000=240.022,330.000=240.000,351.000=240.022,352.000=240.000,353.000=239.978,353.500=120.000,353.833=480.392,354.000=479.869,354.500=120.000,354.833=480.392,355.000=479.869,355.500=120.000,355.833=480.392,356.000=479.869,356.500=120.000,356.833=480.392,357.000=479.869,357.500=240.022,358.000=240.000,371.000=240.022,372.000=240.000,381.000=239.978,381.500=120.000,381.833=480.392,382.000=479.869,382.500=240.022,383.000=240.000,398.000=240.022,399.000=240.000,420.000=240.022,421.000=240.000,430.000=120.000,430.500=480.044,431.500=120.000,432.000=480.044,433.000=120.000,433.333=480.000,434.000=240.000,439.000=240.022,440.000=240.000,461.000=240.022,462.000=240.000,483.000=240.022,484.000=240.000,505.000=240.022,506.000=240.000;
#STOPS:;
#BGCHANGES:;
// cache tags:
#FIRSTBEAT:10.000;
#LASTBEAT:472.250;
#SONGFILENAME:Songs/Super Dancer Online mania/Dragon Blade (Kozo Nakamura)/Dragon Blade.sm;
#HASMUSIC:1;
#HASBANNER:1;
#MUSICLENGTH:128.744;
// end cache tags

//---------------dance-single - ----------------
#NOTES:
     dance-single:
     :
     Hard:
     30:
     1.000,1.000,1.000,0.800,0.447,796.000,733.000,103.000,0.000,326.000:
0000
0000
0000
0000
,
0000
0000
0000
0000
,
0000
0000
0000
0000
0111
0111
1110
1110
,
0000
0000
1011
1101
0000
0000
1011
1011
,
1101
1101
0000
0000
0111
0111
1110
1110
,
0000
0000
1011
1101
0000
0000
1110
1110
,
0111
0111
0000
0000
1101
1101
1011
1011
,
0000
0000
1110
0111
0000
0000
1011
1011
,
1110
1110
0000
0000
0111
0111
1101
1101
,
0000
0000
1110
0111
0000
0000
1100
0110
,
1100
0110
0011
0110
1100
0000
0111
0000
,
0110
1011
0110
1110
,
0011
1101
0110
1110
,
0011
1011
0110
1110
,
0011
2110
3111
1110
,
0011
0111
1100
0111
,
0110
1110
0011
1101
,
0110
1011
1102
2113
,
3111
0110
1100
0110
2110
0000
3211
0000
,
1311
1021
0000
0000
2131
0000
3112
0000
,
1113
1210
0000
0000
1311
0110
1110
0011
,
0110
1100
0111
1100
0110
0011
1110
0011
,
0110
1100
0111
1100
0110
0011
1110
0011
,
0110
1100
0111
1100
0110
0011
1110
0011
,
2110
0000
3112
0000
0113
0011
1110
0011
,
0110
1100
0111
1100
0110
0011
1110
0011
,
0110
1100
0111
1100
0110
2101
0000
3112
,
0000
1213
0000
1311
1210
0011
1000
0011
,
1000
1000
0011
1000
0001
0001
1000
1000
0311
0000
0110
0000
1110
0000
0011
0000
,
0110
1100
0111
1100
0010
1100
0111
1100
,
0110
0011
1110
0011
0110
1100
0111
1100
,
0110
1100
0111
1100
0110
0011
1110
0011
,
2110
0000
3112
0000
0113
0011
1110
0011
,
0110
1100
0111
2110
0000
3111
1110
0011
,
0110
0000
1100
0000
0111
0000
1100
0000
0110
0000
1100
0110
0011
0110
1100
0000
,
0110
0000
0011
0110
1100
0110
0011
0000
0110
0000
1100
0110
0011
0110
1100
0000
,
0110
0000
0011
0110
1100
0110
0011
0000
2111
0000
0000
0000
0000
0000
0000
0000
,
3111
1110
1011
1101
0000
0000
0110
1100
,
0111
0000
1110
0000
0011
0110
1100
0110
0112
0000
0000
0000
0000
0000
1123
0000
,
0000
0000
2231
0000
0000
0000
3311
0110
,
1100
0110
0011
0110
2111
0000
3111
0110
,
1100
0110
0011
0110
1112
0000
1113
0110
,
0011
0110
1100
0110
2111
0000
3111
0110
,
1100
0000
0110
0000
0011
0000
0110
0000
1112
0000
0000
0000
1113
0001
1100
0001
,
1100
0001
1100
0001
1100
0001
1100
0001
1120
0000
0000
0000
0000
0000
0000
0000
,
1231
0000
0000
2311
0000
0000
3112
0000
0000
0000
1113
0000
0000
0000
0111
0000
,
0000
1011
0000
1101
1111
0000
0111
0000
,
1100
0011
1110
0001
1220
0001
1000
1000
,
0001
1000
0331
0001
2112
0000
3113
1100
,
2112
0000
3113
0011
2112
0000
3113
1100
,
2112
0000
3113
0011
1110
0111
0000
0111
,
1110
0000
1110
0111
0000
0111
1110
0000
,
0110
0000
1100
0110
0011
0110
1100
0000
1111
0000
1111
0000
0000
0000
1111
0000
,
1111
0000
0000
0000
1111
0000
1111
0000
0000
0000
0000
0000
0011
0110
1100
0110
,
0011
0110
1100
0110
0011
0110
1100
0110
1111
0000
1111
0000
0000
0000
0011
0000
,
0110
0011
0110
1100
0110
0011
0110
0000
,
1111
1111
0000
0000
1111
1111
0000
1100
,
0110
0011
0110
0011
2110
0000
3112
0000
,
2213
0000
0000
0000
0000
0000
0000
3300
1111
0000
1011
0000
0000
0000
0000
0000
,
1111
1111
0000
0000
1111
1111
0000
0000
,
1111
1111
0000
0000
1110
0000
0111
0000
,
1101
0000
1011
0000
1100
0011
1100
0011
,
1120
0000
0000
0001
0000
0000
1000
0000
0000
1000
0000
0000
0001
0000
0000
1000
0000
0000
0001
0000
0000
0001
0000
0000
1130
0000
0000
0000
0110
0000
0000
0000
0011
0000
0000
0000
0110
0000
0000
0000
1100
0000
0000
0000
0110
0000
0000
0000
,
0011
0110
1100
0110
0011
0110
1100
0110
0011
0110
0011
0110
,
1100
0110
0011
0110
0011
0110
1100
0110
0011
0110
1100
0110
,
1100
0110
0011
0110
1100
0110
0011
0110
1100
0110
0011
0110
,
0111
0000
0000
0111
0000
0000
1110
0000
0000
1110
0000
0000
0011
0000
0110
0000
1100
0000
0110
0000
1100
0000
0110
0000
,
0011
0110
1100
0110
1100
0110
1100
0110
0011
0110
0011
0110
,
1100
0110
0011
0110
0011
0110
0011
0110
1100
0110
1100
0110
,
0011
0000
0110
0000
1100
0000
0110
0000
1100
0000
0110
0000
1100
0000
0110
0000
0011
0000
0110
0000
0000
1100
0000
0000
,
0111
0111
1110
1110
1200
0000
0011
0000
,
1000
1000
0011
0000
0321
1230
1321
0132
,
1000
0123
1100
0030
2100
0000
0011
0000
,
0100
0100
0011
0000
3210
0000
1321
0000
,
0001
1230
0011
1000
2310
0000
0110
0000
,
0001
0001
0110
0000
3210
0000
0011
0312
,
1000
1123
1230
0011
,
1000
1000
0011
0000
0321
1000
0001
0001
,
1000
0001
1000
1000
1131
0000
0111
0000
,
1110
1011
0000
0000
0011
0110
1100
0000
,
0111
2110
0000
0000
3211
0000
0000
1312
,
0000
0000
1113
0000
0000
0000
1111
1111
,
2222
0000
0000
0000
0000
3000
0300
0030
1103
0000
0110
0000
1110
0000
0011
0000
,
0110
1100
0111
1100
0000
0011
1110
0000
,
0011
0110
1110
0011
0110
1100
0111
1100
,
0110
0011
1110
0011
0110
1100
0111
1100
,
0112
0000
1113
0000
0011
0110
1110
0011
,
0110
1100
0111
1100
0110
0011
1110
0011
,
0110
0011
1110
0112
0000
2113
0000
3121
,
0000
1231
0000
1311
0111
1100
0110
0011
,
1000
1000
0021
1000
0001
0001
1000
0001
1130
0000
0110
0000
0111
0000
1100
0000
,
0110
0011
1110
0011
0110
1100
0111
1100
,
0110
0011
1110
0011
0110
1100
0111
1100
,
0110
0011
1110
0011
0110
1100
0111
1100
,
0112
0000
2113
0000
3011
0110
1110
0011
,
0110
1100
0111
2110
0000
3111
1110
0011
,
0110
0000
1100
0000
0111
0000
1110
0000
0110
0000
0011
0110
1100
0110
0011
0000
,
0110
0000
0000
0000
0000
0000
1100
0000
0000
0110
0000
0000
0011
0000
0000
0110
0000
0000
1100
0000
0000
0000
0000
0000
0111
0000
0000
0000
0000
0000
0000
0000
1110
0000
0000
0000
0000
0000
0000
0000
1101
0000
0000
0000
0000
0000
0000
0000
,
1110
0000
0111
0000
1011
0000
1110
0000
0111
0000
1011
0000
,
1101
0000
0111
0000
1110
0000
0000
0000
0000
0012
0000
0000
,
0000
0000
2213
0000
,
3311
0110
1110
0011
0110
1100
0111
1100
,
0110
0000
0011
0000
1110
0000
0011
0000
0110
0000
1100
0000
0111
1100
0110
0000
,
0011
0110
1110
0011
0110
1100
0111
1100
,
0110
1100
0111
1100
0120
0000
1101
0000
,
1230
0000
0010
2301
0110
0010
3200
0000
0321
0000
0000
0000
1231
0000
2310
0000
,
0001
0000
0000
3210
0000
0000
1321
0000
0000
0132
0000
0000
0113
0000
1100
0000
0110
0000
0111
0000
0000
1100
0000
0000
,
0110
0000
0011
0000
0110
0000
1110
0000
0000
0110
0000
0000
0112
0000
0000
0000
0000
0000
0000
0000
0000
1213
0000
0000
,
0000
1321
1131
0111
,
0110
0000
0011
0000
1110
0000
0011
0000
0110
0000
1100
0000
0111
0000
1100
0110
,
0011
0000
0000
0110
0000
0000
1100
0000
0000
0000
0000
0000
0111
0000
0000
0000
0000
0000
1100
0000
0000
0000
0000
0000
0110
0000
0000
0000
0011
0000
0000
0000
0110
0000
0000
0000
1110
0000
0000
0000
0000
0000
0011
0000
0000
0000
0000
0000
,
0110
1100
0111
1100
0110
0011
1110
0011
,
0110
1100
0111
1100
0112
0000
1100
0000
,
0123
0000
1000
0132
1100
0000
0123
0000
1230
0000
0000
0000
2311
0000
3210
0000
,
0001
0321
1000
1230
0311
0110
1100
0110
,
0011
0110
1100
0110
0011
0110
1100
0110
,
0011
0110
1100
0110
0011
0110
1100
0110
,
0011
0110
0011
0110
1111
0000
0000
0000
;

//---------------dance-single - ----------------
#NOTES:
     dance-single:
     :
     Medium:
     1:
     0.962,1.000,1.000,0.241,1.000,683.000,140.000,31.000,0.000,14.000:
0000
0000
0000
0000
,
0000
0000
0000
0000
,
0000
0000
0000
0000
0000
0000
0000
0000
0000
0000
0000
0000
0011
0000
0000
0011
,
0000
0000
0011
0000
0000
1100
0000
0000
0000
1100
0000
0000
0011
0000
0000
0011
,
0000
0000
0011
0000
0000
0000
0000
1100
0010
0100
0000
0010
0100
0010
0000
0000
,
0000
1001
0000
0000
1001
0000
0010
0000
0100
0110
0000
0000
0000
0001
1000
0001
,
0000
0000
1001
0000
0000
0000
0000
0010
0100
0000
0111
0000
0000
0011
0000
0011
,
0000
0000
0000
0000
0000
1100
0000
1100
0000
0000
0000
0011
0000
0000
0000
0011
,
0000
0011
0000
0011
0000
0000
0000
0000
0000
1100
0000
1100
0000
0000
1110
0000
,
0011
0000
0000
0000
0010
0000
0010
0100
0000
0010
0100
0000
0101
0000
0000
0000
,
0010
1000
0000
0001
1000
0000
0000
0111
0000
0000
0000
0101
0000
0000
1011
0000
,
0000
0000
0111
0000
0000
0110
0000
0000
0100
0001
0000
0000
0000
1011
0000
0000
,
0010
1100
0000
0000
0000
0111
0000
0000
0000
0111
0000
0000
0000
1010
0000
0000
,
0010
0100
1000
0000
0100
0001
0000
0000
0000
1010
0000
0000
0000
0010
1100
0000
,
0000
1001
0000
0000
0000
0110
0000
0000
0110
0000
0000
0000
1001
0000
0000
0000
,
1010
0000
0000
0000
0100
0010
0000
0000
0000
1001
0000
0000
0000
0110
0000
0000
,
0000
1001
0000
0000
0000
0110
0000
0000
0000
1001
0000
0000
0010
0100
0000
0000
,
0000
0101
0000
0000
0000
0101
0000
0000
1010
0000
0000
0000
1010
0000
0000
1000
,
0001
0000
0000
1001
0000
0000
0110
0000
0110
0000
0000
0000
1010
0000
0000
0000
,
0000
0001
0000
0100
0001
0100
0000
0101
0000
0000
0010
1000
0000
1010
0000
0000
,
0000
0000
0101
0000
0101
0000
0000
0000
0000
1000
0001
0000
1000
0010
0000
0110
,
0000
0000
0100
0001
0000
1000
0010
0000
0000
0110
0000
0000
1010
0000
0001
1000
,
0000
0010
0000
0000
0001
1000
0000
0010
0100
0000
0001
0100
0000
0001
0100
0000
,
0010
1000
0000
0010
0100
0000
0001
0100
0000
0000
1001
0000
0010
0000
0100
0010
,
0100
0000
0000
0000
0000
0001
0000
0000
0001
1000
0000
0000
0110
0000
0010
0100
,
0000
0110
0000
0000
0000
1001
0000
0000
1001
0000
0000
0001
0100
0000
0001
0100
,
0001
0100
0000
0001
0100
0000
0000
0000
0111
0000
0000
0110
0000
0000
1000
1010
,
0100
0000
0000
0000
0000
1110
0000
0000
0110
0000
0000
0000
0110
0000
0000
0000
,
1001
0000
0000
1001
0000
0000
0000
0000
0110
0000
0101
0000
0010
0000
0000
0010
,
0100
0000
0001
1000
0000
0001
1000
0000
0010
0100
0000
0000
0100
0001
1000
0000
,
0001
0000
1000
0001
0000
0001
0000
0000
0110
0000
0000
0100
0000
1001
0000
0000
,
0001
1000
0100
0000
0000
0001
1100
0000
0011
1000
0000
0110
0000
0000
1011
0000
,
1001
0000
0000
0000
0110
0000
0000
0000
0000
0110
0000
0110
0000
0000
1001
0000
,
1001
0000
0000
0001
0100
0000
0000
0101
0000
0000
0000
0000
1001
0000
0000
1001
,
0000
0000
1001
0000
0000
0000
0110
0000
0000
0110
0000
0001
0100
0000
0001
0000
,
0000
0000
1010
0000
1010
0000
0000
0001
0110
0000
0000
0000
1010
0000
0100
0010
,
0000
0110
0000
0000
0000
1001
0000
0000
0002
0000
0000
0000
0000
0000
0000
0000
,
0003
0010
0000
0010
0000
1000
0000
0100
0000
0010
0000
0000
0010
0000
0100
0000
,
2000
0000
0100
0000
0000
3010
0000
0000
0000
0200
0000
0000
0000
0000
0310
0000
,
0000
0000
0000
0000
2000
0000
0000
0000
0000
0000
0000
3010
0000
0000
0010
0000
,
0100
0000
0010
0000
0000
0000
0000
0000
0002
0000
0000
0000
0000
0000
0000
0003
,
0000
0010
0000
0010
0000
0100
1000
0000
0120
0000
0000
0000
0000
0000
0000
0000
,
0030
0100
0000
0000
1000
0100
0000
0020
0000
0000
0000
0000
0000
0000
0000
0030
,
0100
0000
1000
0000
0100
0000
0010
0000
0002
0000
0000
0000
0000
0000
0000
0003
,
0000
0100
0000
0000
1000
0100
0000
0000
0020
0000
0000
0000
0000
0000
0000
0030
,
0000
0101
0000
0000
0000
0000
0001
0000
0000
0001
0000
0000
0100
0000
0010
0000
,
0000
0010
0000
1000
0000
0000
0100
0020
0000
0000
0000
0000
0000
0000
0000
0000
,
0000
0000
0000
0030
0100
0000
1000
0000
0100
0000
0010
0000
0020
0000
0000
0000
,
0000
0000
0000
0000
0030
0001
0000
0000
0001
0000
0000
0000
0000
0100
0000
0000
,
0010
0010
0000
0000
0000
0000
1000
0000
1010
0000
0000
0010
0000
0000
0000
0100
,
0001
0000
0001
0000
0000
0100
0000
0000
0001
0000
0001
0000
0000
1000
0000
0010
,
0000
0010
0000
0000
0100
0000
0010
0010
0000
0000
0100
0000
0000
0100
0000
0000
,
0010
0000
0000
0000
0000
0010
0000
0000
0010
1000
0000
0001
0000
0000
0000
0001
,
0000
0100
0000
0000
0010
0000
0010
0000
1000
0000
0000
0000
0000
0001
0000
0001
,
0000
0000
0000
0000
0000
0000
0000
0010
0000
0010
0000
0000
0000
0000
0000
0000
,
0010
0000
0000
0010
0000
0010
0000
0000
0000
0010
0000
0010
0000
0000
0000
0000
,
2000
0000
0000
0000
0000
3000
0000
0010
0000
0000
0010
0000
0000
0000
0000
0000
,
0100
0001
0000
0000
0001
0000
0000
0001
0000
0001
0000
0000
0001
0000
0000
0000
,
2000
0000
0000
0000
0000
0000
0000
3010
0000
0000
0010
0000
0000
0000
0000
0000
,
0100
0001
0000
0001
0000
0001
0000
0000
0000
0001
0000
0000
0000
0000
0001
0000
,
0000
0000
0001
0000
0000
0000
0000
0010
1000
0000
0000
0000
0101
0000
0000
0000
,
0110
0000
0000
0000
1001
0000
0000
0000
0110
0000
0000
0000
0001
0100
0000
0000
,
0101
0000
0000
0101
0000
0000
0000
0000
0011
0000
0100
0000
1000
0000
0100
0010
,
0000
0001
0000
0010
0000
0100
0000
1000
0000
0100
0000
0010
0000
0001
0000
0010
,
0000
0001
0010
0000
0100
1000
0000
0100
0010
0000
0001
0000
0010
0000
0100
0000
,
0010
0000
0000
0010
0000
0100
0000
0000
0002
0000
0010
0000
0000
0003
0000
0000
,
0010
0100
0000
1000
0000
0100
0010
0000
0000
0010
0001
0000
0010
0000
0000
0100
,
0000
1000
0000
0100
0010
0000
0000
0001
0010
0000
0000
0001
0010
0000
0100
0000
,
1000
0000
0100
0010
0000
0000
0000
0001
0010
0000
0000
0001
0010
0000
0100
0000
,
0000
0110
0000
0000
0010
0000
0001
0010
0000
0100
1000
0000
0100
0000
0010
0000
,
0000
0010
0000
0000
0100
0000
2000
0000
0000
0000
0000
0000
0000
0000
0000
0000
,
0000
0000
0000
3010
0000
0000
0010
0000
0000
0001
0000
0101
0000
0000
0000
1010
,
0000
0000
0001
1000
0001
0000
1000
0000
0000
0000
0111
0000
0000
0010
0101
0000
,
0001
1000
0000
0001
0000
0100
0010
0000
0000
1101
0000
0000
0000
0110
0000
0000
,
0101
0000
0000
0001
0000
0000
1010
0000
0000
0001
0100
0000
0000
0101
0000
0000
,
0001
0000
0000
0001
1000
0000
1001
0000
0000
0001
0100
0000
0001
0000
0100
0000
,
0010
0010
0000
1010
0020
0000
0000
0000
,
0000
0000
0000
0030
0000
0000
0001
0100
1000
0000
0200
0000
0000
0000
0000
0000
,
0000
0310
0000
0010
0000
0000
0000
0000
0002
0000
0000
0000
0000
0000
0000
0000
,
0003
0010
0000
0010
0000
0000
0000
0000
0100
1000
0000
0100
0000
0000
0010
0000
,
0000
0010
0000
0000
0002
0000
0003
0010
,
0000
0000
0000
0000
2100
0100
0000
3000
0000
0000
0000
0010
0000
0000
0000
0000
,
0020
0000
0000
0000
0000
0030
0000
0000
0001
0001
0000
0000
0100
0000
0010
0000
,
0000
0010
0000
0000
0001
0100
0000
0000
0101
0000
0000
0001
0000
0001
0000
0000
,
0001
0000
0000
1010
0000
0000
0010
0000
0010
0000
0000
0100
0010
0000
0100
0000
,
0010
0000
0010
0000
0000
1000
0001
0000
0000
0001
0000
0000
0100
0000
0010
0000
,
0010
0000
0000
0010
0000
0000
0000
0000
1000
0000
0000
0010
0000
0010
0000
0000
,
0100
0000
0001
0000
0100
0001
0000
0000
0001
0000
0000
1000
0000
0010
0000
0010
,
0000
0010
0000
0100
0000
0000
0010
0010
0000
0100
0000
0001
0000
0000
0001
0000
,
0000
0000
0010
0000
0000
0000
1000
0000
0000
0000
0010
0000
0000
0010
0000
0100
,
0000
0010
0000
0000
0010
0100
0000
0000
0001
0000
0001
0000
0000
0001
1000
0000
,
0000
1010
0000
0000
0010
0000
0000
0010
0000
0100
0000
0000
0100
0010
0000
0000
,
0010
1000
0000
0000
1000
0000
0000
1000
0000
0010
0000
0010
0000
0010
0000
0000
,
0100
0000
0100
0010
0000
0010
0000
1000
0000
0000
0010
0000
0010
0000
0100
0000
,
0000
0010
0000
0000
0000
0000
0000
0000
0100
0000
0110
0000
0000
0010
0000
0000
,
0100
0010
0000
0000
0010
0000
0000
1000
0000
0000
0110
0000
0010
0000
0000
0000
,
0001
0000
0000
0001
0000
0000
0110
0000
1000
0000
0010
0000
0000
0010
0000
0000
,
0001
0010
0000
0000
0100
0000
0000
0010
0000
0101
0010
0000
0000
0001
0010
0000
,
0100
0000
1000
0000
0100
0010
0000
0000
0010
0000
0000
0001
0010
0000
0000
0000
,
0100
0000
1000
0000
0100
0010
0000
0000
0010
0000
0000
0000
0002
0000
0000
0000
,
0000
0000
0000
0000
0000
0000
0000
0000
0003
0020
0000
0000
0000
0000
0000
0030
,
0100
0000
1000
0100
0000
0010
0000
0001
0010
0000
0000
0000
0001
0010
0000
0100
,
0000
0000
0010
0000
0010
0000
0000
0001
0010
0000
0000
0100
0000
0000
0100
0000
,
0010
0000
0001
0010
0000
1000
0000
0000
0110
0000
0000
0001
0010
0000
0000
0001
,
0010
0000
0000
0100
0000
1000
0000
0100
0000
0010
0000
0000
0000
0000
0001
0010
,
0000
0000
0001
0010
0000
0100
0000
0010
0000
0000
0010
0000
0100
0000
0010
0000
,
0000
0010
0000
0000
0001
0010
0000
0100
0000
1000
0000
0100
0010
0000
0000
0010
,
0000
0002
0000
0010
0000
0000
0003
0200
0000
0000
0000
0000
0000
0000
0310
0000
,
0000
0000
0002
0000
0000
0020
0003
0000
,
0130
0000
1000
0000
0100
0000
0010
0000
0000
0010
0000
0001
0000
0010
0000
0100
,
0000
0000
1000
0100
0010
0000
0000
0000
0011
0000
0001
0000
0010
0000
0100
0000
,
0010
0000
0000
0010
0000
0000
0010
0000
0000
0001
0010
0000
0000
0100
0000
1000
,
0100
0010
0000
0010
0000
0000
0000
0020
0000
0000
0000
0000
0000
0000
0030
0001
,
0000
0000
0001
0000
0010
0000
0100
0000
1000
0000
0110
0000
0000
0010
0000
0000
,
0010
0000
0100
0000
0010
0000
0001
0010
0000
0100
0000
1000
0000
0100
0010
0000
,
0010
0000
0000
0000
0010
0000
0000
0012
0000
0000
0000
0110
0000
1003
0000
0100
,
0000
0010
0000
0000
0010
0000
0000
0000
0011
0000
0000
0010
0000
0000
0000
0011
,
0000
0000
0100
2000
0000
0000
0100
0000
3000
0020
0000
0000
0000
0000
0000
0000
,
0000
0030
0000
0000
0000
0000
0000
0000
0000
0000
0000
0000
0000
0000
0000
0000
;
